[HF+FS+DL] DUE.DATE.2010.Cam.XviD.LU 700mb

View previous topic View next topic Go down

[HF+FS+DL] DUE.DATE.2010.Cam.XviD.LU 700mb

Post  Admin on Thu Jan 20, 2011 12:46 am

[HF+FS+DL] DUE.DATE.2010.Cam.XviD.LU 700mb



INFO:-

Code:
Genre:Comedy
Language:English
IMDb:http://www.imdb.com/title/tt1231583/
Source:ELEKTRI4KA/AUDIO LU.Thx


General
Complete name : DUE.DATE.2010.CAM.XVID.LU
Format : AVI
Format/Info : Audio Video Interleave
File size : 702 MiB
Duration : 1h 23mn
Overall bit rate : 1 177 Kbps
Writing application : VirtualDubMod 1.5.10.2 (build 2540/release)
Writing library : VirtualDub build 32706/release

Video
ID : 0
Format : MPEG-4 Visual
Format profile : Advanced Simple@L5
Format settings, BVOP : Yes
Format settings, QPel : No
Format settings, GMC : No warppoints
Format settings, Matrix : Default (H.263)
Codec ID : XVID
Codec ID/Hint : XviD
Duration : 1h 23mn
Bit rate : 1 040 Kbps
Width : 672 pixels
Height : 288 pixels
Display aspect ratio : 2.35:1
Frame rate : 25.000 fps
Color space : YUV
Chroma subsampling : 4:2:0
Bit depth : 8 bits
Scan type : Progressive
Bits/(Pixel*Frame) : 0.215
Stream size : 620 MiB (88%)
Writing library : XviD 1.2.0.dev47 (UTC 2006-11-01)

Audio
ID : 1
Format : MPEG Audio
Format version : Version 1
Format profile : Layer 3
Mode : Joint stereo
Codec ID : 55
Codec ID/Hint : MP3
Duration : 1h 23mn
Bit rate mode : Constant
Bit rate : 128 Kbps
Channel(s) : 2 channels
Sampling rate : 48.0 KHz
Stream size : 76.3 MiB (11%)
Alignment : Split accross interleaves
Interleave, duration : 40 ms (1.00 video frame)
Interleave, preload duration : 500 ms




Plot:
High-strung father-to-be Peter Highman is forced to hitch a ride with aspiring actor Ethan Tremblay on a road trip in order to make it to his child's birth on time.

Screen Shots:-









Download Mirrors

Hotfile

Code:
http://hotfile.com/dl/97987178/3aade80/DUE-DATE-CAM-XVID.szblog.info.avi.part1.rar.html
http://hotfile.com/dl/97989009/a8ede54/DUE-DATE-CAM-XVID.szblog.info.avi.part2.rar.html
http://hotfile.com/dl/97987182/827bba9/DUE-DATE-CAM-XVID.szblog.info.avi.part3.rar.html
Fileserve

Code:
http://www.fileserve.com/file/pPCTMwN/DUE-DATE-CAM-XVID.szblog.info.avi.part1.rar
http://www.fileserve.com/file/cZNsS9X/DUE-DATE-CAM-XVID.szblog.info.avi.part2.rar
http://www.fileserve.com/file/UvNcmHe/DUE-DATE-CAM-XVID.szblog.info.avi.part3.rar

Filesonic

Code:
http://www.filesonic.com/file/60753011/DUE-DATE-CAM-XVID.szblog.info.avi.part1.rar
http://www.filesonic.com/file/60751033/DUE-DATE-CAM-XVID.szblog.info.avi.part2.rar
http://www.filesonic.com/file/60720341/DUE-DATE-CAM-XVID.szblog.info.avi.part3.rar

Duckload

Code:
http://www.duckload.com/download/2280512/DUE-DATE-CAM-XVID.szblog.info.avi.part1.rar
http://www.duckload.com/download/2280468/DUE-DATE-CAM-XVID.szblog.info.avi.part2.rar
http://www.duckload.com/download/2279633/DUE-DATE-CAM-XVID.szblog.info.avi.part3.rar

Single Links


Code:
http://www.fileserve.com/file/fC8JQcb/DUE-DATE-CAM-XVID.szblog.info.avi

http://www.duckload.com/download/2281185/DUE-DATE-CAM-XVID.szblog.info.avi



Admin
Admin

Posts : 43
Join date : 2011-01-19

View user profile http://tantramovies.forumotions.in

Back to top Go down

View previous topic View next topic Back to top

- Similar topics

 
Permissions in this forum:
You cannot reply to topics in this forum